Отзывы о программе Movavi Video Converter

Предыдущая
 12
3
456 
Следующая
Сортировать по: Дате добавления Рейтингу Количеству ответов

ratsnake про Movavi Video Converter 14.3.1 [30-10-2014]

чтобы дамп памяти работал, зайдите на http://msdn.microsoft.com/en-us/windows/hardware/hh852365 и скачайте малюсенькое обновление оно для win 7, но подходит и для xp
3 | | Ответить

Evil про Movavi Video Converter 14.3.1 [16-10-2014]

Редкостная хрень ужасно работает, видео в интернет загружать отказывается, да и вылетает постоянно
| 1 | Ответить

юлия про Movavi Video Converter 14.3.1 [03-09-2014]

Надо же какая наглость!!!!! Спустя 10 часов после покупки программы, пришло письмо с предложением купить эту же версия со скидкой 60%. Просто хамство!!!
2 | | Ответить

константин про Movavi Video Converter 14.3.1 [13-08-2014]

Программа Movavi Video Suite 12, каюсь куплена за рубли. НЕ АКТИВИРУЕТСЯ!!!!!!! НЕ ПОКУПАЙТЕ!!!!
1 | | Ответить

сергей про Movavi Video Converter 14.3.1 [21-06-2014]

при правильных настройках при кодировании в формат avi домашний кинотеатр видит но при play пишет ошибку на версии 11,12,10 всё нормально 14 версия конвертирует действительно быстро но с ошибками
| 3 | Ответить

аноним про Movavi Video Converter 14.3.0 [12-06-2014]

че вы все за ересь несете у всех бесплатных программ есть водяной знак если программа не бесплатная конечно купите и пропадет хорошие программы у них к тому же не дорогие и работают хорошо но чуть чуть до работать а так ок что у вас не получается вените себя руки из жопы растут сначало разберитись в программе изучите справку если есть а патом пишите отзывы. пока читал многие плохие отзывы чуть не лопнул со смеху.
2 | 6 | Ответить

Маргарита про Movavi Video Converter 14.3.0 [02-06-2014]

Я скачала, все нормально. Но меня не устраивает одно, как убрать надпись( демонстрационный материал), которая появляется при просмотре видео, может я не так сохраняю.
10 | 9 | Ответить

Zябр про Movavi Video Converter 14.2.0 [24-04-2014]

Прога просто класс!!!Только качайте лом-буржуи не обеднеют.Пользуюсь 14.0.1.0.Всё путём!
| 2 | Ответить

Алена про Movavi Video Converter 14.2.0 [28-03-2014]

виснет и пробная версия брендирует видео, предупредили бы хоть, не стала бы даже время тратить!
| 1 | Ответить

Алекс про Movavi Video Converter 14.2.0 [28-03-2014]

Редкосный шлак. Вставляет вотермарк в видео, если не зарегался у них на сайте. Что за жлобизм?!
| | Ответить

alien про Movavi Video Converter 14.2.0 [11-03-2014]

не качайте, не покупайте... полный шлак... очень медленная, да и качество не "на высоте"...
| | Ответить

lexus про Movavi Video Converter 14.2.0 [06-03-2014]

Movavi Video Converter 11
говно - 1 час = 60 гб видео с полосками во всех версиях ,а звук минут на десять длиннее видео
| | Ответить

Krot в ответ lexus про Movavi Video Converter 14.2.0 [07-03-2014]

Ты бы еще о 5-ой версии отзыв написал :)
2 | 1 | Ответить

Кирилл про Movavi Video Converter 14.0 [25-01-2014]

Отвратная программа, пишут скачайте бесплатно и все будет резать, после установки выясняется, что бесплатная версия может урезать только половину ролика и еще с каким-то водяным знаком.
| | Ответить

Sergik про Movavi Video Converter 12.3 [12-01-2014]

сколько стоит куnить лицензию и в какой валюте?
| | Ответить

Ответчик в ответ Sergik про Movavi Video Converter 14.3.0 [27-04-2014]

Зайти на сайт производителя не судьба? Кстати, Новосибирские парни пишут программу. А стоит все это дело 990 рублей.
| | Ответить

Игорь про Movavi Video Converter 12.3 [08-01-2014]

Скачал бесплатно на Рутрекере 10-ю версию,всё нормально работает,настройки надо смотреть,а не хаять сразу.На Ютубе,если набрать *Movavi Видео Конвертер*,там есть их ролики на русском-всё понятно,делал свои пользовательские настройки-всё ОК.уДОБНО,ЧТО МОЖНО СЖАТЬ под нужный размер.
| | Ответить

Недовольный про Movavi Video Converter 12.3 [07-01-2014]

Загружает процессор сразу на 100 процентов, все ядра. Обещанной быстроты нет. За скорость надо доплачивать. Удалил это чудо.
| | Ответить

Александр про Movavi Video Converter 12.3 [06-01-2014]

отлично работает купил лицензию у меня windows 8.1 pro
| | Ответить

pashka про Movavi Video Converter 12.3 [11-10-2013]

хуже приложения еще не встречал, глючит, сама делает то что не нужно, да еще и виснит... такую **йню даром не надо, а за деньги тем более!!!
| | Ответить

Павел про Movavi Video Converter 12.3 [30-07-2013]

Скачал установил бесплатную программу Movavi Video Suite 11 SE, получил ключ активировал, вроде все нормально работает. Соединил фрагменты видео, общая сумма которых менее 1 ГБ, около 980 МБ, в итоге после соединения получился файл весом в 9,8 ГБ (!), это че за ерунда такая, программа увеличила в 10 раз объем фрагментов, не очень удобно, особенно для тех у кого жесткие диски не большие. Больше ни чего на ней не делал, ищу альтернативу. Да и еще качество соединения вроде нормальное, по крайней мере для меня. Единственное что сильно увеличивает объем.
| 3 | Ответить

Yota про Movavi Video Converter 12.3 [08-07-2013]

программа редкостное дерьмо
Столкнулись с проблемой в программе , не кодирует Mpeg2
тех данные файла
Complete name : C:DiskSergeй_Ya_ne_lyublyu.mpg
Format : MPEG-PS
File size : 193 MiB
Duration : 3mn 12s
Overall bit rate : 8 434 Kbps

Video
ID : 224 (0xE0)
Format : MPEG Video
Format version : Version 2
Format profile : Main@Main
Format settings, BVOP : Yes
Format settings, Matrix : Custom
Format settings, GOP : M=3, N=15
Duration : 3mn 12s
Bit rate : 8 000 Kbps
Width : 720 pixels
Height : 576 pixels
Display aspect ratio : 4:3
Frame rate : 25.000 fps
Standard : PAL
Color space : YUV
Chroma subsampling : 4:2:0
Bit depth : 8 bits
Scan type : Interlaced
Scan order : Top Field First
Compression mode : Lossy
Bits/(Pixel*Frame) : 0.772
Time code of first frame : 00:00:00:00
Time code source : Group of pictures header
Stream size : 184 MiB (95%)

Audio
ID : 192 (0xC0)
Format : MPEG Audio
Format version : Version 1
Format profile : Layer 2
Duration : 3mn 12s
Bit rate mode : Constant
Bit rate : 224 Kbps
Channel(s) : 2 channels
Sampling rate : 48.0 KHz
Compression mode : Lossy
Stream size : 5.13 MiB (3%)

Написали в тех поддержку разработчику , приложили файл ответил некий товарищ Денис Полянский проблема не решилась , после чего супорт на МЕСЯЦ практически пропал, через месяц пришел невразумительный ответ , ответили что не помогло проблема досих пор не решена.
ВОПРОС ЗАЧЕМ ПРОДАВАТЬ ГАВНО ПО НА КОТОРОЕ movavi не может сделать грамотную тех поддержку.
| | Ответить

Предыдущая
 12
3
456 
Следующая
Написать отзыв
Ваше имя:
Ваш отзыв:
 
 
Корзина закачек (0)
Избранные
 
Категории
Mac
Android
iOS
Windows Phone
Windows
CD/DVD диски
E-Mail
Web разработчику
Аудио, Звук
Безопасность
Видео
Графика и дизайн
Деловые программы
Диски и файлы
Игры, развлечения
Интернет
Мобильные телефоны
Навигация, GPS
Образование, наука
Рабочий стол, десктоп
Разработчику
Серверы
Сети
Система
Скринсейверы
Текст
Хобби, увлечения
Электронные книги
Программы для Контакта